Basic Human Embryology - Temple University School of Medicine



Basic Human Embryology - Temple University School of MedicineFlash video | English | MP4 | 720 x 576 | AVC ~97.4 kbps | 25 fps
AAC 106 kbps | 44.1 KHz | 2 channels | 484 mb
Genre: eLearning / medicine
a series of informative videos about the development of the embryo, dismantled all the features that defined the modern science

01 - Early Embryology
02 - Vertebrate body plan
03 - Limb Development
04 - development of muscle and nerve
05 - Cardiovascular Embryology
06 - Cardiovascular Embryology II
07 - Respiratory development
08 - GI Development
09 - Development of the Kidney
10 - Head and Neck I
11 - Head and Neck development
12 - Reproductive system final

video and audio infoC:\Users\Administrator\Desktop\basic_human_embryology_temple_university_2010\6-Cardiovascular Embryology II.mp4
General
Complete name : C:\Users\Administrator\Desktop\basic_human_embryology_temple_university_2010\6-Cardiovascular Embryology II.mp4
Format : MPEG-4
Format profile : Base Media / Version 2
Codec ID : mp42
File size : 37.0 MiB
Duration : 25mn 12s
Overall bit rate : 205 Kbps
Encoded date : UTC 2011-03-04 21:26:50
Tagged date : UTC 2011-03-04 21:26:52
Writing application : mp4creator 1.4.4
Video #1
ID : 1
Format : AVC
Format/Info : Advanced Video Codec
Format profile : Baseline@L1.3
Format settings, CABAC : No
Format settings, ReFrames : 2 frames
Codec ID : avc1
Codec ID/Info : Advanced Video Coding
Duration : 25mn 12s
Bit rate mode : Variable
Bit rate : 97.4 Kbps
Width : 720 pixels
Height : 576 pixels
Display aspect ratio : 5:4
Frame rate mode : Constant
Frame rate : 25.000 fps
Standard : PAL
Resolution : 24 bits
Colorimetry : 4:2:0
Scan type : Progressive
Bits/(Pixel*Frame) : 0.009
Stream size : 17.5 MiB (47%)
Encoded date : UTC 2011-03-04 21:26:50
Tagged date : UTC 2011-03-04 21:26:51
Audio #2
ID : 2
Format : AAC
Format/Info : Advanced Audio Codec
Format version : Version 4
Format profile : LC
Format settings, SBR : No
Codec ID : 40
Duration : 25mn 10s
Bit rate mode : Variable
Bit rate : 106 Kbps
Maximum bit rate : 120 Kbps
Channel(s) : 2 channels
Channel positions : L R
Sampling rate : 44.1 KHz
Resolution : 16 bits
Stream size : 19.0 MiB (51%)
Encoded date : UTC 2011-03-04 21:26:51
Tagged date : UTC 2011-03-04 21:26:52

Screenshot









Download - FILESONIC.com = High speed parallel downloads!

http://www.filesonic.com/file/188690691/basic_human_embryology_temple_university_2010.part1.rar

http://www.filesonic.com/file/188688781/basic_human_embryology_temple_university_2010.part3.rar

http://www.filesonic.com/file/188688261/basic_human_embryology_temple_university_2010.part5.rar

-, follow the rules-


[Fast Download] Basic Human Embryology - Temple University School of Medicine


Ebooks related to "Basic Human Embryology - Temple University School of Medicine" :
Cholecystitis
Chromium
Chlorine
Childbirth
Cholesteatoma
New Equipping Strategies for Combat Support Hospitals
Genetic Predisposition to Cancer
Royal Society of Medicine Career Handbook: FY1 - ST2
Mechanical Reperfusion for STEMI: From Randomized Trials to Clinical Practice
Atlas of Ileoscopy: A Collection of Clinical Cases
Copyright Disclaimer:
This site does not store any files on its server. We only index and link to content provided by other sites. Please contact the content providers to delete copyright contents if any and email us, we'll remove relevant links or contents immediately.