Eat3D - ZBrush Hard Surface Techniques



Eat3D - ZBrush Hard Surface TechniquesDVD5 | English | MP4 | 1280x720 | AVC 260 kbps | 15 fps
AAC 48 kbps | 44.1 KHz | 2 channels | 2.03 GBGenre: elearning
In this DVD, Instructor Mike Jensen goes into depth on many hard surface techniques in ZBrush. Mike starts off by explaining in detail many techniques like customizing the ui, creating meshes, brushes, and stamps. Next he then takes you through the process of creating an entire mechanical character and covers everything from starting with a concept mesh to creating a clean base mesh and detailing. Mike then takes the final model into 3ds Max and uses V-Ray to create materials and render out layer passes. Last he takes the renders into Photoshop to composite them together. This DVD is perfect for those who want to learn how to create hard surface characters inside ZBrush.

About the Instructor:
Mike Jensen is a character artist from the US who specializes in creating mechanical characters in zbrush. He has created several training packages on ZBrush including the book "Zen of ZBrush" and the e-book "ZBrush Techniques". Mike is currently a freelancer who is dedicated to developing new techniques within ZBrush to produce mechanical characters with the same quality, precision, and accuracy of a traditional 3d modeling package.

Project Files: Included are the ZBrush files, stamps, and alphas as shown in the DVD.

Full audio-video informationC:\Users\Administrator\Desktop\Eat3D - ZBrush Hard Surface Techniques\content\source\zbrush_hs_14_photoshop.mp4
General
Complete name : C:\Users\Administrator\Desktop\Eat3D - ZBrush Hard Surface Techniques\content\source\zbrush_hs_14_photoshop.mp4
Format : MPEG-4
Format profile : JVT
Codec ID : avc1
File size : 97.9 MiB
Duration : 44mn 4s
Overall bit rate : 311 Kbps
Movie name : Eat 3D Training
Encoded date : UTC 2011-01-22 02:41:27
Tagged date : UTC 2011-01-22 02:41:27
Comment : Feed Your Brain!
Video #1
ID : 1
Format : AVC
Format/Info : Advanced Video Codec
Format profile : Main@L3.1
Format settings, CABAC : Yes
Format settings, ReFrames : 4 frames
Codec ID : avc1
Codec ID/Info : Advanced Video Coding
Duration : 44mn 4s
Bit rate mode : Variable
Bit rate : 260 Kbps
Maximum bit rate : 3 314 Kbps
Width : 1 280 pixels
Height : 720 pixels
Display aspect ratio : 16:9
Frame rate mode : Constant
Frame rate : 15.000 fps
Resolution : 24 bits
Colorimetry : 4:2:0
Scan type : Progressive
Bits/(Pixel*Frame) : 0.019
Stream size : 82.0 MiB (84%)
Title : Eat 3D Training
Writing library : x264 core 105 r1732 2b04482
Encoding settings : cabac=1 / ref=3 / deblock=1:-1:-1 / analyse=0x1:0x111 / me=esa / subme=10 / psy=1 / psy_rd=0.80:0.20 / mixed_ref=1 / me_range=16 / chroma_me=1 / trellis=2 / 8x8dct=0 / cqm=0 / deadzone=21,11 / fast_pskip=0 / chroma_qp_offset=-3 / threads=36 / sliced_threads=0 / nr=0 / decimate=1 / interlaced=0 / constrained_intra=0 / bframes=3 / b_pyramid=2 / b_adapt=2 / b_bias=0 / direct=3 / weightb=0 / open_gop=0 / weightp=2 / keyint=250 / keyint_min=15 / scenecut=40 / intra_refresh=0 / rc_lookahead=250 / rc=crf / mb
tree=1 / crf=26.0 / qcomp=0.60 / qpmin=1 / qpmax=51 / qpstep=4 / vbv_maxrate=2000 / vbv_bufsize=5000 / crf_max=0.0 / ip_ratio=1.40 / aq=2:1.00 / nal_hrd=none
Encoded date : UTC 2011-01-22 02:41:27
Tagged date : UTC 2011-01-22 02:41:30
Audio #2
ID : 2
Format : AAC
Format/Info : Advanced Audio Codec
Format version : Version 4
Format profile : LC
Format settings, SBR : No
Format settings, PS : Yes
Codec ID : 40
Duration : 44mn 4s
Bit rate mode : Variable
Bit rate : 48.0 Kbps
Maximum bit rate : 76.9 Kbps
Channel(s) : 2 channels
Channel positions : Front: L R
Sampling rate : 44.1 KHz
Resolution : 16 bits
Stream size : 15.1 MiB (15%)
Encoded date : UTC 2011-01-22 02:41:29
Tagged date : UTC 2011-01-22 02:41:30

Screenshots









Download - FILESONIC.com

http://www.filesonic.com/file/119952931/Eat3D - ZBrush Hard Surface Techniques.part01.rar

http://www.filesonic.com/file/119953171/Eat3D - ZBrush Hard Surface Techniques.part03.rar

[Fast Download] Eat3D - ZBrush Hard Surface Techniques


2: Prev 1 [2] Next

Ebooks related to "Eat3D - ZBrush Hard Surface Techniques" :
Entwickeln fur Windows Phone 7: Architektur, Frameworks, APIs
Die grobe Praxisreferenz zu Windows 8 - Die Knowhow-Bibel
SharePoint 2010 For Dummies
Excel 2010 Made Simple
Windows 8: The Missing Manual
Windows Vista All-in-One Desk Reference 2007
Introduction to AutoCAD 2008 2D and 3D Design
Word 2007 for Starters: The Missing Manual
Formulas and Functions With Microsoft Excel 2003 Business Solutions
McAd/MCSD Self-Paced Training Kit
Copyright Disclaimer:
This site does not store any files on its server. We only index and link to content provided by other sites. Please contact the content providers to delete copyright contents if any and email us, we'll remove relevant links or contents immediately.