Medical Renal Physiology By ETSU



Medical Renal Physiology By ETSUEnglish | MP4 | 720 x 480 | AVC ~1500 kbps | 29.97 fps
AAC 96 kbps | 48.0 KHz | 2 channels | 9.81 GBGenre: elearning / Lectures on Medicine (2011)
Cycle of 19 lectures from East Tennessee State University is devoted to detailed analysis of the physiology and pathophysiology of the kidney.
Сontent of the lectures:
1. Basic Renal Process
2. Fluid Compartments
3. Fluid Shift Problem Solving- part 1
4. Fluid Shift Problem Solving- part2
5. Glomerular Filtration
6. Renal Failure
7. Tubular Transport in the Nephron
8. Tubular Transport Mechanisms
9.Renal Clearance
10. Serum Creatinine BUN
11. Quantitative Indices of Renal Failure
12. Sodium Regulation
13. K _Ca2 _PO4_Mg2 Regulation
14. Tubular Concepts 1
15. Tubular Concepts 2
16. Water Regulation
17. Antiduretic Hormone
18. Renal Acid Regulation
19. Analysis of Arterial Blood Gases

audio-video informationC:\Users\Administrator\Desktop\Medical Renal Physiology By ETSU - 2011\1_Basic Renal Process.MP4
General
Complete name : C:\Users\Administrator\Desktop\Medical Renal Physiology By ETSU - 2011\1_Basic Renal Process.MP4
Format : mobi
Codec ID : mobi
File size : 558 MiB
Duration : 48mn 37s
Overall bit rate : 1 605 Kbps
Movie name : Basic Renal Process
Album : Course - Group
Part/Position : 1
Part/Total : 0
Performer : Dr. Brian Rowe
Screenplay by : East Tennessee State University
Genre : iTunes U
Encoded date : UTC 2011-03-03 14:11:22
catg : Anatomy Physiology
desc : Basic Renal Process
itnu : 1
stik : 23
purl : (Binary)
egid : (Binary)
ldes : Basic Renal Process
cnID : 0
rtng : 0
atID : 0
cmID : 0
plID : 0
geID : 0
sfID : 0
tvsn : 0
tves : 0
purd : 2040-02-06 07:18:55
rndu : 0
rpdu : 0
Video #1
ID : 1
Format : AVC
Format/Info : Advanced Video Codec
Format profile : Baseline@L3.0
Format settings, CABAC : No
Format settings, ReFrames : 1 frame
Codec ID : avc1
Codec ID/Info : Advanced Video Coding
Duration : 48mn 37s
Bit rate mode : Variable
Bit rate : 1 500 Kbps
Width : 720 pixels
Height : 480 pixels
Display aspect ratio : 4:3
Frame rate mode : Constant
Frame rate : 29.970 fps
Standard : NTSC
Resolution : 24 bits
Colorimetry : 4:2:0
Scan type : Progressive
Bits/(Pixel*Frame) : 0.145
Stream size : 522 MiB (93%)
Language : English
Audio #2
ID : 2
Format : AAC
Format/Info : Advanced Audio Codec
Format version : Version 4
Format profile : LC
Format settings, SBR : No
Codec ID : 40
Duration : 48mn 37s
Bit rate mode : Variable
Bit rate : 96.0 Kbps
Channel(s) : 2 channels
Channel positions : L R
Sampling rate : 48.0 KHz
Resolution : 16 bits
Stream size : 32.9 MiB (6%)
Language : English

Screenshots







Download FILESONIC.com

http://www.filesonic.com/file/1062984481/Medical Renal Physiology By ETSU - 2011.part01.rar

http://www.filesonic.com/file/1062990051/Medical Renal Physiology By ETSU - 2011.part03.rar

http://www.filesonic.com/file/1062994571/Medical Renal Physiology By ETSU - 2011.part05.rar

http://www.filesonic.com/file/1062998251/Medical Renal Physiology By ETSU - 2011.part07.rar

http://www.filesonic.com/file/1063003521/Medical Renal Physiology By ETSU - 2011.part09.rar

http://www.filesonic.com/file/1063007161/Medical Renal Physiology By ETSU - 2011.part11.rar

http://www.filesonic.com/file/1063011311/Medical Renal Physiology By ETSU - 2011.part13.rar

[Fast Download] Medical Renal Physiology By ETSU


Ebooks related to "Medical Renal Physiology By ETSU" :
Cholecystitis
Chromium
Chlorine
Childbirth
Cholesteatoma
Contemporary Fixed Prosthodontics - 3rd Edition
Atlas and Synopsis of Lever's Histopathology of the Skin
Chocolate in Health and Nutrition (Nutrition and Health)
Medullary Thyroid Cancer
Diseases of the Breast, 5th edition
Copyright Disclaimer:
This site does not store any files on its server. We only index and link to content provided by other sites. Please contact the content providers to delete copyright contents if any and email us, we'll remove relevant links or contents immediately.